Пророчество 2 / The Prophecy II (1998) BDRip-AVC от ExKinoRay | P

Ответить на тему
 
Автор Сообщение

Bot ®

Стаж: 1 год 3 месяца

Сообщений: 2365

Создавать темы 12-Окт-2017 14:05

[Цитировать]

Информация о фильме
Название: Пророчество 2
Оригинальное название: The Prophecy II
Год выхода: 1998
Жанр: ужасы, фэнтези, триллер
Режиссер: Грег Спенс / Greg Spence
В ролях: Кристофер Уокен, Расселл Вонг, Дженнифер Билз, Бриттэни Мерфи, Гленн Дэнзиг, Эрик Робертс
О фильме :
Война за небеса далека от окончания. Габриэль, самый могущественный из ангелов господних, возвращается на землю. Он не может похвастаться тем, что его положение достаточно прочно, и что армия ангелов ему беспрекословно подчиняется. Его страшная миссия — разрушить и уничтожить самое ценное творение Господа — человечество.

Страна: США
Продолжительность: 01:23:46
Перевод: Профессиональный (многоголосый закадровый)
Файл
Формат: MKV
Качество: BDRip-AVC (BDRemux 1080p)
Видео: MPEG-4 AVC, 1024x552, ~ 2953 Кбит/с
Звук:
1. AC3, 48 kHz, 6 ch, 384 kbps | RUS
2. AC3, 48 kHz, 2 ch, 384 kbps | ENG
Субтитры: Русские, английские
MI
Общее
Уникальный идентификатор : 223741576006062935696195945332985735583 (0xA8530F62F082F03BA9DE8E49A042A99F)
Полное имя : D:MOVIESThe Prophecy-II.1998.ExKinoRay.mkv
Формат : Matroska
Версия формата : Version 4 / Version 2
Размер файла : 2,18 Гбайт
Продолжительность : 1 ч. 23 м.
Общий поток : 3722 Кбит/сек
Дата кодирования : UTC 2017-10-12 06:38:37
Программа кодирования : mkvmerge v15.0.0 ('Duel with the Devil') 64-bit
Библиотека кодирования : libebml v1.3.5 + libmatroska v1.4.5
Видео
Идентификатор : 1
Формат : AVC
Формат/Информация : Advanced Video Codec
Профиль формата : High@L4.1
Параметр CABAC формата : Да
Параметр RefFrames формата : 9 кадров
Идентификатор кодека : V_MPEG4/ISO/AVC
Продолжительность : 1 ч. 23 м.
Битрейт : 2953 Кбит/сек
Ширина : 1024 пикселя
Высота : 552 пикселя
Соотношение сторон : 1,85:1
Режим частоты кадров : Постоянный
Частота кадров : 24,000 кадра/сек
Цветовое пространство : YUV
Субдискретизация насыщенности : 4:2:0
Битовая глубина : 8 бит
Тип развёртки : Прогрессивная
Бит/(Пиксели*Кадры) : 0.218
Размер потока : 1,73 Гбайт (79%)
Библиотека кодирования : x264 core 152 r2851kMod ba24899
Настройки программы : cabac=1 / ref=9 / deblock=1:-2:-1 / analyse=0x3:0x113 / me=umh / subme=11 / psy=1 / fade_compensate=0.00 / psy_rd=1.05:1.10 / mixed_ref=1 / me_range=32 / chroma_me=1 / trellis=2 / 8x8dct=1 / cqm=0 / deadzone=21,11 / fast_pskip=0 / chroma_qp_offset=-4 / threads=6 / lookahead_threads=1 / sliced_threads=0 / nr=0 / decimate=0 / interlaced=0 / bluray_compat=0 / constrained_intra=0 / bframes=12 / b_pyramid=2 / b_adapt=2 / b_bias=0 / direct=3 / weightb=1 / open_gop=0 / weightp=2 / keyint=240 / keyint_min=23 / scenecut=40 / intra_refresh=0 / rc_lookahead=40 / rc=2pass / mbtree=0 / bitrate=2953 / ratetol=1.0 / qcomp=0.60 / qpmin=0 / qpmax=69 / qpstep=4 / cplxblur=20.0 / qblur=0.5 / vbv_maxrate=50000 / vbv_bufsize=62500 / nal_hrd=none / filler=0 / ip_ratio=1.40 / pb_ratio=1.30 / aq=3:0.90
Default : Да
Forced : Нет
Аудио #1
Идентификатор : 2
Формат : AC-3
Формат/Информация : Audio Coding 3
Параметр Endianness формата : Big
Идентификатор кодека : A_AC3
Продолжительность : 1 ч. 23 м.
Вид битрейта : Постоянный
Битрейт : 384 Кбит/сек
Каналы : 6 каналов
Расположение каналов : Front: L C R, Side: L R, LFE
Частота : 48,0 КГц
Частота кадров : 31,250 кадров/сек (1536 SPF)
Битовая глубина : 16 бит
Метод сжатия : С потерями
Размер потока : 230 Мбайт (10%)
Язык : Russian
Default : Да
Forced : Нет
Аудио #2
Идентификатор : 3
Формат : AC-3
Формат/Информация : Audio Coding 3
Параметр Endianness формата : Big
Идентификатор кодека : A_AC3
Продолжительность : 1 ч. 23 м.
Вид битрейта : Постоянный
Битрейт : 384 Кбит/сек
Каналы : 2 канала
Расположение каналов : Front: L R
Частота : 48,0 КГц
Частота кадров : 31,250 кадров/сек (1536 SPF)
Битовая глубина : 16 бит
Метод сжатия : С потерями
Размер потока : 230 Мбайт (10%)
Язык : English
Default : Нет
Forced : Нет
Текст #1
Идентификатор : 4
Формат : UTF-8
Идентификатор кодека : S_TEXT/UTF8
Идентификатор кодека/Информация : UTF-8 Plain Text
Продолжительность : 1 ч. 17 м.
Битрейт : 47 бит/сек
ElementCount : 619
Размер потока : 27,0 Кбайт (0%)
Заголовок : Русские
Язык : Russian
Default : Нет
Forced : Нет
Текст #2
Идентификатор : 5
Формат : UTF-8
Идентификатор кодека : S_TEXT/UTF8
Идентификатор кодека/Информация : UTF-8 Plain Text
Продолжительность : 1 ч. 17 м.
Битрейт : 38 бит/сек
ElementCount : 680
Размер потока : 21,9 Кбайт (0%)
Заголовок : English
Язык : English
Default : Нет
Forced : Нет
Меню
00:00:00.000 : en:00:00:00.000
00:03:17.250 : en:00:03:17.250
00:05:48.832 : en:00:05:48.832
00:10:40.707 : en:00:10:40.707
00:17:46.583 : en:00:17:46.583
00:23:15.708 : en:00:23:15.708
00:28:27.500 : en:00:28:27.500
00:33:53.000 : en:00:33:53.000
00:38:17.166 : en:00:38:17.166
00:45:24.500 : en:00:45:24.500
00:51:11.375 : en:00:51:11.375
00:57:08.333 : en:00:57:08.333
01:03:24.791 : en:01:03:24.791
01:09:56.875 : en:01:09:56.875
01:17:04.000 : en:01:17:04.000
Скриншоты
Релиз от:
[Профиль] [ЛС]
Показать сообщения:    
Ответить на тему

Текущее время: 19-Окт 12:14

Часовой пояс: UTC + 3



Вы не можете начинать темы
Вы не можете отвечать на сообщения
Вы не можете редактировать свои сообщения
Вы не можете удалять свои сообщения
Вы не можете голосовать в опросах
Вы не можете прикреплять файлы к сообщениям
Вы не можете скачивать файлы