Однажды на севере / Härmä (2012) HDRip | Sub

Ответить на тему
 
Автор Сообщение

Bot ®

Стаж: 1 год 3 месяца

Сообщений: 2365

Создавать темы 12-Окт-2017 14:09

[Цитировать]

Однажды на севере / Once Upon a Time in the North / Härmä
Страна: Финляндия
Производство: Yellow Film & TV
Год выпуска: 2012
Жанр: драма
Продолжительность: 02:08:46
Режиссер: Юкка-Пекка Сиили
Автор сценария: Юкка-Пекка Сиили
В ролях: Лаури Тилканен, Микко Леппилампи, Памела Тола, Аку Хирвиниеми, Ээро Милонофф, Эско Салминен, Лена Мерилайнен, Танели Мякеля
Описание: Действие фильма происходит в начале XIX века на равнинах Остроботнии — провинции, расположенной на западе Финляндии. Здесь всем заправляют бандиты, из всех видов оружия предпочитающие ножи. Испокон веков в тех краях старший сын наследовал всё. И когда Эско, главарь бандитов, узнаёт, что отец хочет оставить родовое поместье его младшему брату, начинается настоящая война...

Перевод: отсутствует | субтитры
Субтитры: отдельным файлом | русские-Качество: HDRip | исходник Once.Upon.A.Time.In.The.North.2011.1080p.BluRay.x264-MCHD [PublicHD]
Формат: AVI
Видео кодек: XviD
Аудио кодек: АС3
Видео: 720x304 (2.35:1), 23.976 fps, XviD ~1 427 kbps avg, 0.272 bit/pixel
Аудио: 48.0 kHz, AC3 Dolby Digital, 2/0 (L,R) ch, ~192 kbps | FIN
Формат субтитров: *SRT
Дата премьеры (мир): 17 февраля 2012

Релиз от: porcellus
Media Info
General
Complete name : Однажды на Севере.avi
Format : AVI
Format/Info : Audio Video Interleave
File size : 1.46 GiB
Duration : 2 h 8 min
Overall bit rate : 1 628 kb/s
Writing application : VirtualDubMod 1.5.10.2 (build 2540/release)
Writing library : VirtualDubMod build 2540/release
Video
ID : 0
Format : MPEG-4 Visual
Format profile : Advanced Simple@L5
Format settings, BVOP : 1
Format settings, QPel : No
Format settings, GMC : No warppoints
Format settings, Matrix : Default (MPEG)
Codec ID : XVID
Codec ID/Hint : XviD
Duration : 2 h 8 min
Bit rate : 1 427 kb/s
Width : 720 pixels
Height : 304 pixels
Display aspect ratio : 2.35:1
Frame rate : 23.976 (24000/1001) FPS
Color space : YUV
Chroma subsampling : 4:2:0
Bit depth : 8 bits
Scan type : Progressive
Compression mode : Lossy
Bits/(Pixel*Frame) : 0.272
Stream size : 1.28 GiB (88%)
Writing library : XviD 1.2.0.dev47 (UTC 2006-11-01)
Audio
ID : 1
Format : AC-3
Format/Info : Audio Coding 3
Mode extension : CM (complete main)
Format settings, Endianness : Big
Codec ID : 2000
Duration : 2 h 8 min
Bit rate mode : Constant
Bit rate : 192 kb/s
Channel(s) : 2 channels
Channel positions : Front: L R
Sampling rate : 48.0 kHz
Frame rate : 31.250 FPS (1536 spf)
Bit depth : 16 bits
Compression mode : Lossy
Stream size : 177 MiB (12%)
Alignment : Split accross interleaves
Interleave, duration : 42 ms (1.00 video frame)
Interleave, preload duration : 500 ms
Скриншоты
[Профиль] [ЛС]
Показать сообщения:    
Ответить на тему

Текущее время: 19-Окт 12:15

Часовой пояс: UTC + 3



Вы не можете начинать темы
Вы не можете отвечать на сообщения
Вы не можете редактировать свои сообщения
Вы не можете удалять свои сообщения
Вы не можете голосовать в опросах
Вы не можете прикреплять файлы к сообщениям
Вы не можете скачивать файлы