Мистер Штайн идёт в онлайн / Un profil pour deux (2017) WEB-DLRip-AVC от OlLanDGroup | iTunes

Ответить на тему
 
Автор Сообщение

Bot ®

Стаж: 1 год 3 месяца

Сообщений: 2365

Создавать темы 12-Окт-2017 14:12

[Цитировать]

Мистер Штайн идёт в онлайн / Un profil pour deux
«История Сирано де Бержерака в эпоху Google»-

Год выпуска: 2017
Страна: Франция, Германия, Бельгия
Производство: BE TV, Chaussee Soundvision, Compagnie Cinématographique, La, Detailfilm, Gasmia Film
Жанр: Комедия
Режиссёр: Стефан Робели
В ролях: Пьер Ришар, Янис Леспере, Фанни Валетт, Стефани де Крэенкур, Стефан Биссо, Маша Мериль, Гюстав Керверн, Пьер Кивитт, Анна Бедерке, Филипп Шэйн
Перевод: Профессиональный многоголосый | iTunes
Субтитры: Нет
Реклама: Отсутствует
Описание: 75-летний вдовец ведёт уединённый образ жизни. Родственники дарят ему компьютер в надежде оживить будни старика. Вскоре он заводит онлайн знакомство, правда, несколько приукрасив данные своего профайла. Элегантной беседой, несвойственной современным людям, он сильно заинтересовывает молодую красивую женщину. Как избежать разоблачения при личной встрече?

Качество: WEB-DLRip-AVC
Продолжительность: 01:36:25
Формат: MKV
Видео кодек: MPEG-4 AVC
Аудио кодек: AC3
Видео: 1024x554 (1,85:1), 25,000 fps, x264 ~2508 kbps avg, 0.177 bit/pixel
Аудио #1: 48 kHz, AC3 Dolby Digital, 3/2 (L,C,R,l,r) + LFE ch, ~384.00 kbps avg | RUS (iTunes)
Дата премьеры (мир): 19 января 2017
Дата премьеры (РФ): 24 августа 2017, «Russian World Vision»

Релиз от: Rip by:
MediaInfo
Общее
Уникальный идентификатор : 248956393634200373754261157727116237112 (0xBB4B41E0AF728B7893151DF2AEC49938)
Полное имя : E:OlLanDGroupMr.Stein.Goes.Online.2017.WEB-DLRip(AVC).OlLanDGroup.mkv
Формат : Matroska
Версия формата : Version 2
Размер файла : 1,95 Гбайт
Продолжительность : 1 ч. 36 м.
Общий поток : 2891 Кбит/сек
Название фильма : Mr.Stein.Goes.Online.2017 #TorpedoUK#
Дата кодирования : UTC 2017-10-08 13:14:44
Программа кодирования : mkvmerge v7.8.0 ('River Man') 32bit built on Apr 3 2015 12:11:22
Библиотека кодирования : libebml v1.3.1 + libmatroska v1.4.2
Видео
Идентификатор : 1
Формат : AVC
Формат/Информация : Advanced Video Codec
Профиль формата : High@L4.1
Параметр CABAC формата : Да
Параметр ReFrames формата : 10 кадров
Идентификатор кодека : V_MPEG4/ISO/AVC
Продолжительность : 1 ч. 36 м.
Битрейт : 2508 Кбит/сек
Ширина : 1024 пикселя
Высота : 554 пикселя
Соотношение сторон : 1,85:1
Режим частоты кадров : Постоянный
Частота кадров : 25,000 кадров/сек
Цветовое пространство : YUV
Субдискретизация насыщенности : 4:2:0
Битовая глубина : 8 бит
Тип развёртки : Прогрессивная
Бит/(Пиксели*Кадры) : 0.177
Размер потока : 1,65 Гбайт (85%)
Библиотека кодирования : x264 core 146 r2538 121396c
Настройки программы : cabac=1 / ref=10 / deblock=1:-3:-3 / analyse=0x3:0x133 / me=umh / subme=11 / psy=1 / psy_rd=1.00:0.07 / mixed_ref=1 / me_range=48 / chroma_me=1 / trellis=2 / 8x8dct=1 / cqm=0 / deadzone=21,11 / fast_pskip=0 / chroma_qp_offset=-3 / threads=6 / lookahead_threads=1 / sliced_threads=0 / nr=0 / decimate=0 / interlaced=0 / bluray_compat=0 / constrained_intra=0 / bframes=10 / b_pyramid=2 / b_adapt=2 / b_bias=0 / direct=3 / weightb=1 / open_gop=0 / weightp=2 / keyint=240 / keyint_min=24 / scenecut=40 / intra_refresh=0 / rc_lookahead=40 / rc=2pass / mbtree=0 / bitrate=2508 / ratetol=1.0 / qcomp=0.60 / qpmin=0 / qpmax=69 / qpstep=4 / cplxblur=20.0 / qblur=0.5 / vbv_maxrate=50000 / vbv_bufsize=62500 / nal_hrd=none / filler=0 / ip_ratio=1.40 / pb_ratio=1.30 / aq=1:1.00
Язык : English
Default : Да
Forced : Нет
Аудио
Идентификатор : 2
Формат : AC-3
Формат/Информация : Audio Coding 3
Расширение режима : CM (complete main)
Параметр Endianness формата : Big
Идентификатор кодека : A_AC3
Продолжительность : 1 ч. 36 м.
Вид битрейта : Постоянный
Битрейт : 384 Кбит/сек
Каналы : 6 каналов
Расположение каналов : Front: L C R, Side: L R, LFE
Частота : 48,0 КГц
Частота кадров : 31,250 кадров/сек (1536 spf)
Битовая глубина : 16 бит
Метод сжатия : С потерями
Размер потока : 265 Мбайт (13%)
Заголовок : [MVO] DD 5.1 @ 384 kbps (iTunes)
Язык : Russian
Default : Да
Forced : Нет
Меню
00:00:00.000 : en:Глава 1
00:05:54.480 : en:Глава 2
00:13:05.560 : en:Глава 3
00:17:59.920 : en:Глава 4
00:23:49.800 : en:Глава 5
00:29:58.760 : en:Глава 6
00:35:49.120 : en:Глава 7
00:44:27.760 : en:Глава 8
00:50:27.040 : en:Глава 9
00:56:14.920 : en:Глава 10
01:00:26.280 : en:Глава 11
01:06:12.120 : en:Глава 12
01:11:28.800 : en:Глава 13
01:17:04.480 : en:Глава 14
01:22:20.160 : en:Глава 15
01:28:03.760 : en:Глава 16
Скриншоты
[Профиль] [ЛС]
Показать сообщения:    
Ответить на тему

Текущее время: 19-Окт 12:11

Часовой пояс: UTC + 3



Вы не можете начинать темы
Вы не можете отвечать на сообщения
Вы не можете редактировать свои сообщения
Вы не можете удалять свои сообщения
Вы не можете голосовать в опросах
Вы не можете прикреплять файлы к сообщениям
Вы не можете скачивать файлы