Сегодня идет свободное скачивание без начисления Download

Возврат / Cashback (2006) [1080p] HDTV

Ответить на тему
 
Автор Сообщение

Bot ®

Стаж: 4 года 1 месяц

Сообщений: 10

Создавать темы 11-Фев-2019 04:49

[Цитировать]

Возврат / Cashback (2006) HDTV-«Жизнь такая, какой её сделаешь ты.»- Русское название: Возврат
Оригинальное название: Cashback
Год выпуска: 2006
Производство: Великобритания, Left Turn Films, Lip Sync Productions, Ugly Duckling Films
Жанр: Драма, Мелодрама, Комедия
Перевод: Многоголосый закадровый, профессиональный
Субтитры: Вшитые отключаемые
Язык субтитров: Русские, Английские, Голландские
Дата мировой премьеры: 18 мая 2006
Режиссер: Шон Эллис
Продюсер: Лене Босейджер, Шон Эллис, Дафна Гиннесс, ...
Актеры: Мишель Райан, Шон Биггерстаф, Эрика Эллис, Джей Бауэн, Шон Эванс, Кеннет Фахи, Стэн Эллис, Кэти Болл, Эмилия Фокс, Стюарт Гудвин
Описание фильма:
Переживая болезненное расставание с любимой, Бен впадает в бессоницу. В освободившиеся 8 часов он начинает работать в ночную смену местного супермаркета, где главной задачей обслуживающего персонала является «времяубийство». Неожиданно Бен обнаруживает в себе необычную способность останавливать время, что даёт толчок его художественному таланту.

Продолжительность: 01:41:37
Качество видео: HDTV
Видеокодек: MPEG-4 AVC/H.264
Битрейт видео: ~6567 kbps
Размер кадра: 1920x816
Аудио #1: Русский, AC3 5.1, 448 kbps [Многоголосый закадровый, профессиональный]
Аудио #2: Английский, AC3 5.1, 384 kbps [Оригинал]
mediainfo
Код:
Общее
Уникальный идентификатор                 : 180524450319653864368117347644845987244 (0x87CFBE94B2F1E56BA71EF0A4EF0615AC)
Полное имя                               : D:\cinema\Vozvrat.2006.HDTV.1080p.NNM-Club.ru.mkv
Формат                                   : Matroska
Версия формата                           : Version 1
Размер файла                             : 5,36 Гбайт
Продолжительность                        : 1 ч. 41 м.
Общий поток                              : 7549 Кбит/сек
Дата кодирования                         : UTC 2008-06-10 00:02:18
Программа кодирования                    : mkvmerge v2.2.0 ('Turn It On Again') built on Mar  4 2008 12:58:26
Библиотека кодирования                   : libebml v0.7.7 + libmatroska v0.8.1
Видео
Идентификатор                            : 1
Формат                                   : AVC
Формат/Информация                        : Advanced Video Codec
Профиль формата                          : High@L5.1
Параметр CABAC формата                   : Да
Параметр ReFrames формата                : 8 кадров
Идентификатор кодека                     : V_MPEG4/ISO/AVC
Продолжительность                        : 1 ч. 41 м.
Битрейт                                  : 6567 Кбит/сек
Ширина                                   : 1920 пикселей
Высота                                   : 816 пикселей
Соотношение сторон                       : 2,35:1
Частота кадров                           : 23,976 кадра/сек
Цветовое пространство                    : YUV
Субдискретизация насыщенности            : 4:2:0
Битовая глубина                          : 8 бит
Тип развёртки                            : Прогрессивная
Бит/(Пиксели*Кадры)                      : 0.175
Размер потока                            : 4,66 Гбайт (87%)
Язык                                     : English
Default                                  : Да
Forced                                   : Нет
Аудио #1
Идентификатор                            : 2
Формат                                   : AC-3
Формат/Информация                        : Audio Coding 3
Расширение режима                        : CM (complete main)
Идентификатор кодека                     : A_AC3
Продолжительность                        : 1 ч. 41 м.
Вид битрейта                             : Постоянный
Битрейт                                  : 448 Кбит/сек
Каналы                                   : 6 каналов
Расположение каналов                     : Front: L C R, Side: L R, LFE
Частота                                  : 48,0 КГц
Битовая глубина                          : 16 бит
Метод сжатия                             : С потерями
Задержка видео                           : 4 мс.
Размер потока                            : 326 Мбайт (6%)
Заголовок                                : AC3 5.1 448 kbps
Язык                                     : Russian
Default                                  : Да
Forced                                   : Нет
Аудио #2
Идентификатор                            : 3
Формат                                   : AC-3
Формат/Информация                        : Audio Coding 3
Расширение режима                        : CM (complete main)
Идентификатор кодека                     : A_AC3
Продолжительность                        : 1 ч. 41 м.
Вид битрейта                             : Постоянный
Битрейт                                  : 384 Кбит/сек
Каналы                                   : 6 каналов
Расположение каналов                     : Front: L C R, Side: L R, LFE
Частота                                  : 48,0 КГц
Битовая глубина                          : 16 бит
Метод сжатия                             : С потерями
Задержка видео                           : 4 мс.
Размер потока                            : 279 Мбайт (5%)
Заголовок                                : AC3 5.1 384 kbps
Язык                                     : English
Default                                  : Нет
Forced                                   : Нет
Текст #1
Идентификатор                            : 4
Формат                                   : UTF-8
Идентификатор кодека                     : S_TEXT/UTF8
Идентификатор кодека/Информация          : UTF-8 Plain Text
Язык                                     : Russian
Default                                  : Нет
Forced                                   : Нет
Текст #2
Идентификатор                            : 5
Формат                                   : UTF-8
Идентификатор кодека                     : S_TEXT/UTF8
Идентификатор кодека/Информация          : UTF-8 Plain Text
Язык                                     : English
Default                                  : Нет
Forced                                   : Нет
Текст #3
Идентификатор                            : 6
Формат                                   : UTF-8
Идентификатор кодека                     : S_TEXT/UTF8
Идентификатор кодека/Информация          : UTF-8 Plain Text
Язык                                     : Dutch
Default                                  : Нет
Forced                                   : Нет
Дополнительная информация:
Фильм практически в полном объёме вобрал в себя одноимённую 18-минутную короткометражку, удостоенную в 2006 году номинации на Оскар.
Производство полнометражной картины началось более чем через год после окончания работы над короткометражкой. В декабре 2004 года режиссёр и сценарист Шон Эллис решил развить сюжет и за семь дней написал сценарий фильма. В марте 2005 года он добился договорённости со всеми ключевыми актёрами, затем решил вопрос с источниками финансирования, и в мае того же года начались уложившиеся в 25 дней съёмки.
Шампунь, который Барри и Мэтт называли «помощью для женщин» (так как он был фаллической формы) — это настоящий бренд Umberto Giannini.
Рецензия:
The Frozen Moment…
«Остановись, мгновенье! Ты прекрасно!» — именно это я сейчас чувствую. А все это — послевкусие одной из лучших картин в моей жизни.
А началось все с обычного вопроса, адресованного мне в твиттере человеком с тонким вкусом, творческим и чрезвычайно мною уважаемым. Этот самый вопрос уместился в двух словах: «Смотрела Cashback?» Мне не захотелось спрашивать, что это за фильм и проч. и проч., я просто поняла, что мне срочно надо его смотреть. Увидев напротив графы «Страна» — Великобритания, я решила смотреть его в оригинале, поскольку я заочно знала, что фильм шикарный и перевод в данном случае лишь испортит впечатление, к тому же это поможет моему английскому.
С самых первых кадров фильм меня заворожил. В прямом смысле. Я не просто смотрела, а жила этим фильмом, не шевелясь, с желанием тождественным с желанием главного героя «Остановить время. Насладиться этим мгновением. Жить этим моментом целую неделю.»
Это кино наиболее полно раскрывает то, что называют атмосферным кино. Ты просто живешь жизнью главного героя. За 108 минут ты переживаешь разрыв с любимым человеком, не спишь 4 недели, учишься останавливать время и видеть мир другими глазами, глазами художника.
Самое главное, ты понимаешь, что это не есть нереально. Ибо замедлить, или и вовсе остановить время в наших силах. А еще ты понимаешь, что это огромное преимущество, и все-таки это не дает тебе шанса время вернуть. А отсюда и осознание того, что наибольшая ценность в жизни человека — время.
Нет желания разглагольствовать об игре актеров и и т. д., (хоть и следовало отметить, что невозможно представить себе других актеров на месте Шона Биггерстафа и Эмилии Фокс; что авторская неповторимость приятно удивляет каждую минуту; а драматические моменты идеально сочетаются с комедийными, и ты внезапно прыскаешь со смеха и др.), я твердо знаю одно, что это один из лучших фильмов в моей жизни и я буду пересматривать его еще много-много раз. И я нисколько не преувеличиваю.
Эта картина подарила мне ту возможность, которой я думала у меня никогда не будет, а именно — ощутить на себе, каким видят мир художники. Вдобавок я узнала и метод, как это сделать.
А теперь я сижу в некоем трансе и продолжаю переживать эту удивительную работу Шона Эллиса.
10 из 10 и мое признание вдобавок!
Скриншоты: Пожалуйста не уходите с раздачи, дайте скачать другим!!! Время раздачи: с 21:00 до 7:00
[Профиль] [ЛС]
Показать сообщения:    
Ответить на тему

Текущее время: 17-Фев 11:52

Часовой пояс: UTC + 3



Вы не можете начинать темы
Вы не можете отвечать на сообщения
Вы не можете редактировать свои сообщения
Вы не можете удалять свои сообщения
Вы не можете голосовать в опросах
Вы не можете прикреплять файлы к сообщениям
Вы не можете скачивать файлы