Сегодня идет свободное скачивание без начисления Download

Поворот / U Turn (1997) BDRip [H.264]

Ответить на тему
 
Автор Сообщение

Bot ®

Стаж: 2 года 4 месяца

Сообщений: 10

Создавать темы 11-Фев-2019 06:41

[Цитировать]

Поворот / U Turn (1997) BDRip [H.264]-«Чужак в незнакомом городе. Жена, задумавшая убийство. Муж желающий её смерти. Они думают, что все их беды позади... Но они только начинаются»- Производство: Франция, США / Canal+ Droits Audiovisuels, Clyde Is Hungry Films, Illusion Entertainment Group, Phoenix Pictures
Жанр: Триллер, Драма, Комедия, Криминал
Режиссер: Оливер Стоун
Сценарий: Джон Ридли
Продюсер: Дэн Халстед, Клэйтон Таунсенд, Билл Браун
Композитор: Эннио Морриконе
Актеры: Шон Пенн, Дженнифер Лопез, Ник Нолти, Билли Боб Торнтон, Джон Войт, Хоакин Феникс, Пауэрс Бут, Клэр Дэйнс, Валерий Николаев, Джули Хэгерти
Описание фильма:
Бобби Купер, мелкий картежник с полными карманами денег и огромными долгами в Лас-Вегасе, снова на пустынной дороге в погоне за своим счастьем. Поломка заставляет его свернуть в маленький город, где он встречает Грейс, коварную красотку, задумавшую убийство своего богатого мужа.
Они оба стремятся выбраться из города. И если вы познакомитесь с его жителями, то поймете — почему…

Продолжительность: 02:04:28
Качество видео: BDRip
Перевод: Дублированный, авторский
Язык субтитров: Отсутствуют
Видеокодек: AVC/H.264
Битрейт видео: ~2126 Кбит/сек
Размер кадра: 1024x552
Аудио 1: Русский, AC3 2.0, 192 Кбит/сек, 48 kHz (Дублированный)
Аудио 2: Русский, AC3 2.0, 192 Кбит/сек, 48 kHz (Авторский, А.Гаврилов)
Знаете ли вы, что...
Изначально Шон Пенн отклонил предложение сняться в данном фильме из-за чрезмерной занятости на других проектах. Роль Бобби Купера досталась Биллу Пэкстону. Однако спустя всего неделю после начала съёмок Билл выбыл из проекта. На счастье продюсеров рабочий график Пенна оказался свободным, и он смог сыграть в фильме.
Город, где происходит действие фильма, существует на самом деле. В нём также проходили съёмки «Пророчества» (1995).
Специально для роли в данном фильме, Билли Боб Торнтон поправился на 50 фунтов (примерно 22,6 килограмм).
Изначально роль Грейс предназначалась для Шэрон Стоун, однако актрису не устроил гонорар, и она отказалась сниматься в фильме.
Изначально Том Савини должен был сыграть Байкера N 2, однако из-за занятости на других проектах он не смог этого сделать.
Когда у Оливера Стоуна поинтересовались, почему он снял данный фильм, он ответил, что всегда хотел сделать кино, которое он бы с удовольствием посмотрел, если был бы тинейджером.
В сценах-воспоминаниях Грейс (Дженннифер Лопез) можно заметить множество детских фотографий. Это — подлинные фотографии Дженнифер в детстве.
Изначально Оливер Стоун намеревался отдать роль слепого старика Марлону Брандо.
Фильм частично основан на реальных событиях, случившихся в начале 1980-х гг. с одним путешественником, заехавшим в удаленный маленький городок, и пропавшим без вести.
Реценция с кинопоиска от SumarokovNC-17:
Поворот не туда
Картежника Бобби Купера(Шон Пенн) волею случая судьба приводит в маленький городок в невадской пустыне под названием Superior, который, несмотря на оптимистичное название("Превосходный» или «Самый лучший», именно так переводится название городка), оказывается настоящим адом и фильм, начавшись как криминальная драма, вскоре превращается в параноидальный, галлюциногенный триллер, полный сложноватых для восприятия символов, которые раскрываются через оригинальную операторскую работу Роберта Ричардсона.
Фильм смотрится на одном дыхании, благодаря непредсказуемому сценарию Джона Ридли, по чьему одноименному роману фильм и снят. Великолепная музыка Эннио Морриконе нагнетает напряжение и создает в картине атмосферу настоящего триллера, не отпускающего зрителя до конца.
Помимо Шона Пенна, в фильме занят прекрасный актерский состав и даже в крохотных ролях засветились Хоакин Феникс, Клэр Дэйнс, Билли Боб Торнтон, Лив Тайлер, Пауэрс Бут, сыграв свои роли на все 12 баллов и создав запоминающихся персонажей.
Конечно, кому-то фильм покажется излишне жестоким, циничным и мрачным, но Оливер Стоун и не сиремился создать гламурную картинку, ведь история Бобби Купера смотрится скорее как постмодернистская притча о расплате за грехи. Сам же городок со всеми его странными обитателями — экстраполяция ада на Земле, из которого невозможно уйти, по крайней мере, живым и психически здоровым. Фильм сильно недооценен критиками и зрителями, но если Вам пришлись по вкусу и «Прирожденные убийцы» того же Оливера Стоуна, «Поворот» Вас не разочарует.
10 из 10
Mediainfo:
Код:
General
Unique ID                                : 212856808200536944268828783719435519539 (0xA022BAE6647A7958A088CB475B44C633)
Complete name                            : F:\Downloads\Поворот.mkv
Format                                   : Matroska
Format version                           : Version 4 / Version 2
File size                                : 2.18 GiB
Duration                                 : 2h 4mn
Overall bit rate                         : 2 512 Kbps
Encoded date                             : UTC 2015-03-28 02:17:52
Writing application                      : mkvmerge v7.0.0 ('Where We Going') 32bit built on Jun  9 2014 15:08:34
Writing library                          : libebml v1.3.0 + libmatroska v1.4.1
DURATION                                 : 02:04:28.832000000
NUMBER_OF_FRAMES                         : 233401
NUMBER_OF_BYTES                          : 179251968
_STATISTICS_WRITING_APP                  : mkvmerge v7.0.0 ('Where We Going') 32bit built on Jun  9 2014 15:08:34
_STATISTICS_WRITING_DATE_UTC             : 2015-03-28 02:17:52
_STATISTICS_TAGS                         : BPS DURATION NUMBER_OF_FRAMES NUMBER_OF_BYTES
Video
ID                                       : 1
Format                                   : AVC
Format/Info                              : Advanced Video Codec
Format profile                           : High@L4.1
Format settings, CABAC                   : Yes
Format settings, ReFrames                : 8 frames
Codec ID                                 : V_MPEG4/ISO/AVC
Duration                                 : 2h 4mn
Bit rate                                 : 2 126 Kbps
Width                                    : 1 024 pixels
Height                                   : 552 pixels
Display aspect ratio                     : 1.85:1
Frame rate mode                          : Constant
Frame rate                               : 23.976 fps
Color space                              : YUV
Chroma subsampling                       : 4:2:0
Bit depth                                : 8 bits
Scan type                                : Progressive
Bits/(Pixel*Frame)                       : 0.157
Stream size                              : 1.81 GiB (83%)
Title                                    : U-Turn
Writing library                          : x264 core 125 r2208 d9d2288
Encoding settings                        : cabac=1 / ref=8 / deblock=1:-1:-1 / analyse=0x3:0x133 / me=umh / subme=9 / psy=1 / psy_rd=1.00:0.10 / mixed_ref=1 / me_range=32 / chroma_me=1 / trellis=2 / 8x8dct=1 / cqm=0 / deadzone=21,11 / fast_pskip=0 / chroma_qp_offset=-3 / threads=6 / lookahead_threads=1 / sliced_threads=0 / nr=0 / decimate=1 / interlaced=0 / bluray_compat=0 / constrained_intra=0 / bframes=3 / b_pyramid=2 / b_adapt=2 / b_bias=0 / direct=3 / weightb=1 / open_gop=0 / weightp=2 / keyint=250 / keyint_min=25 / scenecut=40 / intra_refresh=0 / rc_lookahead=60 / rc=2pass / mbtree=1 / bitrate=2126 / ratetol=1.0 / qcomp=0.60 / qpmin=0 / qpmax=69 / qpstep=4 / cplxblur=20.0 / qblur=0.5 / ip_ratio=1.40 / aq=1:1.00
Language                                 : English
Default                                  : Yes
Forced                                   : No
Audio #1
ID                                       : 2
Format                                   : AC-3
Format/Info                              : Audio Coding 3
Mode extension                           : CM (complete main)
Format settings, Endianness              : Big
Codec ID                                 : A_AC3
Duration                                 : 2h 4mn
Bit rate mode                            : Constant
Bit rate                                 : 192 Kbps
Channel(s)                               : 2 channels
Channel positions                        : Front: L R
Sampling rate                            : 48.0 KHz
Bit depth                                : 16 bits
Compression mode                         : Lossy
Stream size                              : 171 MiB (8%)
Title                                    : Дублированный
Language                                 : Russian
Default                                  : Yes
Forced                                   : No
Audio #2
ID                                       : 3
Format                                   : AC-3
Format/Info                              : Audio Coding 3
Mode extension                           : CM (complete main)
Format settings, Endianness              : Big
Codec ID                                 : A_AC3
Duration                                 : 2h 4mn
Bit rate mode                            : Constant
Bit rate                                 : 192 Kbps
Channel(s)                               : 2 channels
Channel positions                        : Front: L R
Sampling rate                            : 48.0 KHz
Bit depth                                : 16 bits
Compression mode                         : Lossy
Stream size                              : 171 MiB (8%)
Title                                    : Авторский, А.Гаврилов
Language                                 : Russian
Default                                  : No
Forced                                   : No
Скриншоты:
Время раздачи: с 14:00 до 02:00 по Москве (выходные круглосуточно), до 10 скачавших
[Профиль] [ЛС]
Показать сообщения:    
Ответить на тему

Текущее время: 17-Фев 10:47

Часовой пояс: UTC + 3



Вы не можете начинать темы
Вы не можете отвечать на сообщения
Вы не можете редактировать свои сообщения
Вы не можете удалять свои сообщения
Вы не можете голосовать в опросах
Вы не можете прикреплять файлы к сообщениям
Вы не можете скачивать файлы