Сегодня идет свободное скачивание без начисления Download

Горсть свинца / A Fistful of Lead (2018) WEBRip [H.264/720p-LQ] [MVO]

Ответить на тему
 
Автор Сообщение

Bot ®

Стаж: 11 месяцев 2 дня

Сообщений: 1

Создавать темы 11-Фев-2019 07:04

[Цитировать]

Горсть свинца / A Fistful of Lead (2018) WEBRip - Производство: Великобритания / The Ideas Factry, IMP Studis, Dead Pixel
Жанр: Вестерн
Режиссер: Марк Прайс
Актеры: Джеймс Грум, Батч Бернард, Дункан Кэйси, Крис Роджерс, Кристиан Паттерсон, Маркус Шейкшефф, Сэм Коулман, Эмили Эндрюс, Ричард Сэндлинг, Шарлотта Мунтер
Описание:
Четверо самых отпетых негодяев запада решают ограбить банк города золотоискателей. Когда шериф пускается в погоню и находит их, грабители понимают, что их предали, но кто?

Дата мировой премьеры: декабрь 2018
Продолжительность: 01:26:19
Качество видео: WEBRip
Перевод: Двуголосый закадровый, любительский (HiWayGrope)
Субтитры: отсутствуют
Видео: AVC/H.264, 1280x544, ~2165 Kbps
Аудио 1: AC3, 2 ch, 192 Kbps | русский
Аудио 2: EAC3, 6 ch, 640 Kbps | английский
Mediainfo:
Общее
Уникальный идентификатор : 204028084206375899834431052612364917456 (0x997E6133292ABA67A8C80303D62BDAD0)
Полное имя : D:\FILMЬl\A Fistful of Lead_720P.mkv
Формат : Matroska
Версия формата : Version 4
Размер файла : 1,84 Гбайт
Продолжительность : 1 ч. 26 м.
Общий поток : 3058 Кбит/сек
Дата кодирования : UTC 2018-12-30 19:40:56 / UTC 2018-12-30T17:37:57Z
Программа кодирования : mkvmerge v29.0.0 ('Like It Or Not') 64-bit
Библиотека кодирования : libebml v1.3.6 + libmatroska v1.4.9 / Lavf57.7.2
Видео
Идентификатор : 1
Формат : AVC
Формат/Информация : Advanced Video Codec
Профиль формата : Main@L4
Настройки формата : CABAC / 5 Ref Frames
Параметр CABAC формата : Да
Параметр RefFrames формата : 5 кадров
Идентификатор кодека : V_MPEG4/ISO/AVC
Продолжительность : 1 ч. 26 м.
Битрейт : 2165 Кбит/сек
Ширина : 1280 пикселей
Высота : 544 пикселя
Соотношение сторон : 2,35:1
Соотношение сторон в оригинале : 2,35:1
Режим частоты кадров : Постоянный
Частота кадров : 23,976 (24000/1001) кадра/сек
Цветовое пространство : YUV
Субдискретизация насыщенности : 4:2:0
Битовая глубина : 8 бит
Тип развёртки : Прогрессивная
Бит/(Пиксели*Кадры) : 0.130
Размер потока : 1,31 Гбайт (71%)
Библиотека кодирования : x264 core 155 r2901 7d0ff22
Настройки программы : cabac=1 / ref=5 / deblock=1:0:0 / analyse=0x1:0x111 / me=umh / subme=9 / psy=1 / psy_rd=1.00:0.00 / mixed_ref=1 / me_range=18 / chroma_me=1 / trellis=1 / 8x8dct=0 / cqm=0 / deadzone=21,11 / fast_pskip=1 / chroma_qp_offset=-2 / threads=6 / lookahead_threads=1 / sliced_threads=0 / nr=0 / decimate=1 / interlaced=0 / bluray_compat=0 / constrained_intra=0 / bframes=5 / b_pyramid=2 / b_adapt=2 / b_bias=0 / direct=1 / weightb=1 / open_gop=0 / weightp=2 / keyint=240 / keyint_min=24 / scenecut=40 / intra_refresh=0 / rc_lookahead=30 / rc=crf / mbtree=1 / crf=17.0 / qcomp=0.60 / qpmin=0 / qpmax=69 / qpstep=4 / vbv_maxrate=20000 / vbv_bufsize=25000 / crf_max=0.0 / nal_hrd=none / filler=0 / ip_ratio=1.40 / aq=1:1.00
Default : Да
Forced : Нет
Цветовой диапазон : Limited
Основные цвета : BT.709
Характеристики трансфера : BT.709
Коэффициенты матрицы : BT.709
Statistics Tags Issue : mkvmerge v29.0.0 ('Like It Or Not') 64-bit 2018-12-30 19:40:56 / mkvmerge v29.0.0 ('Like It Or Not') 64-bit 2018-12-30 19:40:56 / UTC 2018-12-30T17:37:57Z
FromStats_BitRate : 2224001
FromStats_Duration : 01:26:19.591000000
FromStats_FrameCount : 124186
FromStats_StreamSize : 1439926959
Аудио #1
Идентификатор : 2
Формат : AC-3
Формат/Информация : Audio Coding 3
Коммерческое название : Dolby Digital
Идентификатор кодека : A_AC3
Продолжительность : 1 ч. 26 м.
Вид битрейта : Постоянный
Битрейт : 192 Кбит/сек
Каналы : 2 канала
Channel layout : L R
Частота : 48,0 КГц
Частота кадров : 31,250 кадров/сек (1536 SPF)
Битовая глубина : 16 бит
Метод сжатия : С потерями
Размер потока : 119 Мбайт (6%)
Язык : Russian
ServiceKind/String : Complete Main
Default : Да
Forced : Нет
Statistics Tags Issue : mkvmerge v29.0.0 ('Like It Or Not') 64-bit 2018-12-30 19:40:56 / mkvmerge v29.0.0 ('Like It Or Not') 64-bit 2018-12-30 19:40:56 / UTC 2018-12-30T17:37:57Z
FromStats_BitRate : 192000
FromStats_Duration : 01:26:18.656000000
FromStats_FrameCount : 161833
FromStats_StreamSize : 124287744
Аудио #2
Идентификатор : 3
Формат : E-AC-3
Формат/Информация : Enhanced AC-3
Коммерческое название : Dolby Digital Plus
Идентификатор кодека : A_EAC3
Продолжительность : 1 ч. 26 м.
Вид битрейта : Постоянный
Битрейт : 640 Кбит/сек
Каналы : 6 каналов
Channel layout : L R C LFE Ls Rs
Частота : 48,0 КГц
Частота кадров : 31,250 кадров/сек (1536 SPF)
Метод сжатия : С потерями
Размер потока : 395 Мбайт (21%)
Заголовок : Surround
Язык : English
ServiceKind/String : Complete Main
Default : Нет
Forced : Нет
Statistics Tags Issue : mkvmerge v29.0.0 ('Like It Or Not') 64-bit 2018-12-30 19:40:56 / mkvmerge v29.0.0 ('Like It Or Not') 64-bit 2018-12-30 19:40:56 / UTC 2018-12-30T17:37:57Z
FromStats_BitRate : 640000
FromStats_Duration : 01:26:19.616000000
FromStats_FrameCount : 161863
FromStats_StreamSize : 414369280
Скриншоты:
Все одноименные релизы в КлубеВремя раздачи: с 09:00 до 23:30 (до появления первых 3-5 скачавших)
[Профиль] [ЛС]
Показать сообщения:    
Ответить на тему

Текущее время: 17-Фев 12:07

Часовой пояс: UTC + 3



Вы не можете начинать темы
Вы не можете отвечать на сообщения
Вы не можете редактировать свои сообщения
Вы не можете удалять свои сообщения
Вы не можете голосовать в опросах
Вы не можете прикреплять файлы к сообщениям
Вы не можете скачивать файлы