Сегодня идет свободное скачивание без начисления Download

Человек на Луне / First Man (2018) UHD Blu-ray 2160p | 4K | HDR | Dolby Vision | Лицензия

Ответить на тему
 
Автор Сообщение

Bot ®

Стаж: 6 лет 9 месяцев

Сообщений: 36451

Откуда: СССР

Создавать темы 11-Фев-2019 09:02

[Цитировать]

Человек на Луне
First Man

Название: Человек на Луне
Оригинальное название: First Man
Год выпуска: 2018
Жанр: Драма, биография, история
Выпущено: США, Amblin Entertainment, DreamWorks SKG
Режиссер: Дэмьен Шазелл
В ролях: Клер Фой, Райан Гослинг, Пабло Шрайбер, Кристофер Эбботт, Итэн Эмбри, Киаран Хайндс, Джейсон Кларк, Кайл Чандлер, Кори Столл, Ши Уигхэм
Продолжительность: 02:20:59
Перевод: Дублированный | Лицензия
Описание:
Судьба любит смельчаков, а Нил Армстронг однозначно принадлежит к их числу. Весь мир знает его имя, но мало кому известно, какой ценой астронавту дался маленький шаг, ставший огромным скачком для всего человечества.


Файл
Контейнер: MP4
Качество: UHD BDRemux (2160p)
Видео: HEVC HDR, 57.1 Mбит/с, 3840x2160, 23.976 кадр/с
Audio: Russian / Dolby Digital Audio / 5.1 / 48 kHz / 640 kbps / DN -26dB
Скриншоты
MI:
Общее
Полное имя : First.Man.2018.UHD.BDRemux.2160p.DV.IVA.RUS.ExKinoRay.mp4
Формат : MPEG-4
Профиль формата : Base Media / Version 2
Идентификатор кодека : mp42 (mp42/dby1/isom)
Размер файла : 63,2 Гбайт
Продолжительность : 2 ч. 20 м.
Общий поток : 64,1 Мбит/сек
Дата кодирования : UTC 2019-01-19 08:48:28
Дата пометки : UTC 2019-01-19 08:48:28
Видео #1
Идентификатор : 1
Формат : HEVC
Формат/Информация : High Efficiency Video Coding
Коммерческое название : HDR10
Профиль формата : Main 10@L5.1@High
Идентификатор кодека : hev1
Идентификатор кодека/Информация : High Efficiency Video Coding
Продолжительность : 2 ч. 20 м.
Битрейт : 57,1 Мбит/сек
Ширина : 3840 пикселей
Высота : 2160 пикселей
Соотношение сторон : 16:9
Режим частоты кадров : Постоянный
Частота кадров : 23,976 (24000/1001) кадра/сек
Цветовое пространство : YUV
Субдискретизация насыщенности : 4:2:0 (Type 2)
Битовая глубина : 10 бит
Бит/(Пиксели*Кадры) : 0.287
Размер потока : 56,3 Гбайт (89%)
Default : Нет
Дата кодирования : UTC 2019-01-19 08:48:28
Дата пометки : UTC 2019-01-19 08:48:28
Цветовой диапазон : Limited
Основные цвета : BT.2020
Характеристики трансфера : PQ
Коэффициенты матрицы : BT.2020 non-constant
MasteringDisplay_ColorPrimaries : Display P3
MasteringDisplay_Luminance : min: 0.0001 cd/m2, max: 1000 cd/m2
MaxCLL : 1000 cd/m2
MaxFALL : 285 cd/m2
Codec configuration box : hvcC
Видео #2
Идентификатор : 2
Формат : HEVC
Формат/Информация : High Efficiency Video Coding
Коммерческое название : HDR10
Профиль формата : Main 10@L5.1@High
Dolby Vision : 1.0, dvhe.07.06, EL+RPU
Идентификатор кодека : dvhe
Идентификатор кодека/Информация : High Efficiency Video Coding with Dolby Vision
Продолжительность : 2 ч. 20 м.
Битрейт : 6606 Кбит/сек
Ширина : 1920 пикселей
Высота : 1080 пикселей
Соотношение сторон : 16:9
Режим частоты кадров : Постоянный
Частота кадров : 23,976 (24000/1001) кадра/сек
Цветовое пространство : YUV
Субдискретизация насыщенности : 4:2:0 (Type 2)
Битовая глубина : 10 бит
Бит/(Пиксели*Кадры) : 0.133
Размер потока : 6,51 Гбайт (10%)
Default : Нет
Дата кодирования : UTC 2019-01-19 08:48:28
Дата пометки : UTC 2019-01-19 08:48:28
Цветовой диапазон : Limited
Основные цвета : BT.2020
Характеристики трансфера : PQ
Коэффициенты матрицы : BT.2020 non-constant
MasteringDisplay_ColorPrimaries : Display P3
MasteringDisplay_Luminance : min: 0.0001 cd/m2, max: 1000 cd/m2
Codec configuration box : hvcC+dvcC
Аудио
Идентификатор : 3
Формат : AC-3
Формат/Информация : Audio Coding 3
Коммерческое название : Dolby Digital
Идентификатор кодека : ac-3
Продолжительность : 2 ч. 20 м.
Вид битрейта : Постоянный
Битрейт : 640 Кбит/сек
Каналы : 6 каналов
Channel layout : L R C LFE Ls Rs
Частота : 48,0 КГц
Частота кадров : 31,250 кадров/сек (1536 SPF)
Битовая глубина : 16 бит
Метод сжатия : С потерями
Размер потока : 687 Мбайт (1%)
Язык : Russian
ServiceKind : Complete Main
Default : Нет
Дата кодирования : UTC 2019-01-19 08:48:28
Дата пометки : UTC 2019-01-19 08:48:28
[Профиль] [ЛС]
Показать сообщения:    
Ответить на тему

Текущее время: 17-Фев 11:40

Часовой пояс: UTC + 3



Вы не можете начинать темы
Вы не можете отвечать на сообщения
Вы не можете редактировать свои сообщения
Вы не можете удалять свои сообщения
Вы не можете голосовать в опросах
Вы не можете прикреплять файлы к сообщениям
Вы не можете скачивать файлы